Page ContentIndex Of Flac Floyd FLAC(Free Lossless Audio Codec, / ˈ f l æ k /)은 오디오 데이터 압축을 위한 파일 형식이다. 0 96kHz/24Bit) | Bitrate: lossless | Tracks: 6 | Size: ~3. 0 beta 3 from 29. Any Colour You Like 09. My old CD player used to display these (eg. 0 96kHz/24Bit, MLP 4. Pink Floyd - Lucy Leave and Other Rarities (FLAC) 토렌트 링크 제공 서치엔진; Pink Floyd - Lucy Leave and Other Rarities (FLAC) 월등한 자료량 무료 다운로드; Pink Floyd - Lucy Leave and Other Rarities (FLAC) 토렌트가 필요할 땐 토렌트제이. 71 GB CERTIFICATE ┬╖ 1. 1 kHz (Tracks) / FLAC 24 bit / 44. EAC extraction logfile from 3. 5 GB Pink Floyd The Dark Side Of The Moon 1973 [24 bit FLAC] VINYL 890 MB Pink Floyd - Discography [EAC - FLAC] (oan) 7. Exact Audio Copy V0. February 2012, 17:46 Pink Floyd / The Wall (Immersion) (CD 1). LIVE EVIL 001 : Pink Floyd - Live at Pompeii (speed corrected) PF_LiveAtPompeiiRm_flac. 79 KB FLAC 1975 Quadro Mix. Channel: Comments on: Floyd Mayweather bet $3 million on Alabama-Michigan game? Summary article 1 to 9 of 9 in channel 4473056 Channel Details:. Quality: FLAC (image+. Band Name: Pink Floyd Album Title: The Final Cut (Japan Limited Edition Remastered) Total Playing Time: 00:46:21 Min. Four stylii were used. FLAC Export Setup. 63 MB Pink Floyd - More/06 Cymbaline. 8bit Pink Floyd STILL goes over better than 8bit Zeppelin. 3 - Pink Floyd [16Bit-44. So I developed this tool to save few minutes of my time. Any Colour You Like 09. The album was recorded during the band’s Division Bell Tour in 1994, specifically the UK and European leg. (Rock) Pink Floyd - Echoes The Best of Pink Floyd (2CD) (2002) [FLAC (Tracks+. 다시 말해서, MP3 , AAC , Vorbis 와는 달리 오디오 스트림에 손실이 발생하지 않는다. FlacMusicFinder. Pink Floyd The Dark Side Of The Moon BoxSet 3CD FLAC 1. Exact Audio Copy V0. Used drive : SONY CDRW/DVD CRX835E Adapter: 4 ID: 0. Pink Floyd - More/01 Cirrus Minor. Join us today for the ultimate listening experience!. 58 MB Pink Floyd - The Wall Live 1980-81 (2000)/disc 1/(15)The Last Few Bricks. INDEX 01 35:27:52 TRACK 09 AUDIO TITLE "Sorrow" INDEX 01 36:02:20 TRACK 10 AUDIO TITLE "The Dogs Of War" INDEX 01 46:27:38 TRACK 11 AUDIO TITLE "On The Turning Away" INDEX 01 54:30:00 FILE "Pink Floyd - Delicate Sound of Thunder (CD 2 Remix). Pink Floyd - The Dark Side of the Moon - Time (FLAC). Kentucky Archives. rar LIVE EVIL 002 : Pink Floyd - Live at the BBC (best of), (disc 2 remastered) PF_LiveAtTheBBC_RevA_flac. Four US police officers charged over George Floyd death Trump trying to divide US - ex-Pentagon chief Mattis Hong Kong pro-democracy politicians protest anthem bill. Category: flac Wish You Were Here - Pink Floyd - A Collection Of Great Dance Songs. Pero es el The Wall el unico que no he podido hacer funcionar. 63 MB Pink Floyd - More/06 Cymbaline. DescrizioneI Pink Floyd erano una band rock inglese formata a Londra nel 1965. : Yes Encoder: FLAC Bitrate: ~900 kBit/s (44. 99 prebeta 5 from 4. 1 kHz (Tracks) Artist: Roy Head Title: Same People (That You Meet Going Up, You Meet Coming Down) Released: 1970 / 2020 Style: R&B, Funk / Soul RAR Size: 213 / 379 Mb. May 26, 2020, 2:17 pm. Digitized at 78 revolutions per minute. it would display 01 04) when it played part 4 of track 1. 1 KHz (CD lossless) MP3 Format: 320 kbps 01. 00b: October 6 2013 at 12:01: Robert Miles - Dreamland (1996) [flac] 0. Style: Progressive Rock Year: 1992 Format: FLAC Bitrate: lossless Amount of tracks: 79 Tracklist: CD1 – A Saucerful…. ' During his long career, Floyd has composed Komponist: Carlisle Floyd (1926) Genre: Classical. Exact Audio Copy V1. Ok maybe Suz can do some easy trivia questions: 0:. 00b: October 6 2013 at 12:01: Rise And Fall (CDM) 0. 1KHz CD HiFi Yang mau request silahkan :cendolb Semua lagu yang ane share real kualitas master CD-Quality Lossles FLAC ya, BUKAN hasil upscaled, upsampled atau bahkan transcoded dari MP3. Pink Floyd / 1968 Germin-ation FLAC 44kHz/24bit Download XSON683995F44 $17. 3000 - E-mail: [email protected] The idea was to provide a single entry point for all counties in Kentucky, where collected databases would be stored. 00b: October 6 2013 at 12:00: requiem for a dream - OST: 0. FLAC (อ่านว่า "แฟลค") เป็นรูปแบบการบันทึกเสียงชนิดหนึ่ง ย่อมาจาก Free Lossless Audio Codec โดยมีไว้เพื่อการบีบอัดข้อมูลแบบไม่สูญเสียของไฟล์เสียงดิจิตอล โดย. Four stylii were used. 1khz FLAC Spoiler for Another Brick in the Wall, Pt. Breathe 03. I will add a +1 here too. Any Colour You Like 09. Pink Floyd The Dark Side Of The Moon BoxSet 3CD FLAC 1. dsf: 2019-08-06:. Yet Another Movie - 6:1507. In March and April, 1996, a group of genealogists organized the Kentucky Comprehensive Genealogy Database. CD1 - A Momentary Lapse of Reason (Remixed & Updated) PFRLY1CD - 00:51:1201. Consider this online catalog our tribute to art, our tribute to real music. cue) Bitrate: lossless Covers: full (600 DPI) Amount of tracks: 10 Size ZIP: ~ 362 mb Upload: nitroflare. EAC extraction logfile from 3. (Rock) Pink Floyd - Echoes The Best of Pink Floyd (2CD) (2002) [FLAC (Tracks+. Pink Floyd - The Later Years: 1987-2019 | MP3 & FLAC; Pink Floyd - The Wall (Remastered) + [FLAC] David Bowie - Discographie Studio [FLAC] Michael Jackson - Discographie + [FLAC] Roger Waters – Roger Waters The Wall [iTunes Plus AAC M4A] (2015) Jeff Beck - Albums Collection: 9 Albums (10CD) (2013 - 2014) Pink Floyd - Greatest Hits. EAC extraction logfile from 3. Aug 26, 2020 Files Neil Young Original Release Series Discs 58 2017Neil Young Time Fades AwayNeil Young Time Fades Awaym3u 531B Neilnbsp. August 2011 EAC extraction logfile from 25. Pero es el The Wall el unico que no he podido hacer funcionar. Pink Floyd - The Dark Side Of The Moon полная реставрация в соответствии с концептом AudioPhil editions Жанр: psychedelic rock Год выпуска: 1973 Лейбл: Harvest Records Страна-производитель: UK Аудио кодек: FLAC Тип рипа: image+. 99 prebeta 5 from 4. Exact Audio Copy V0. Another Brick in the Wall, Pt. Filename D:\0\Billy Sherwood & Friends - Back Against The Wall (2005) [FLAC]\Disc 1\03 - Another Brick In The Wall (Part 1). Used drive : SONY CDRW/DVD CRX835E Adapter: 4 ID: 0. Pulse (stylised as p·u·l·s·e) is a live double album by the English progressive rock band Pink Floyd, released through EMI Records on 29 May 1995 in the United Kingdom and by Columbia Records on 6 June 1995 in the United States. ALSO AVAILABLE - Pink Floyd Dark Side Of The Moon [AVCHD-FLAC-Immersion][Bubanee] ----- Contents ----- AVCHD BDMV ┬╖ 5. cue) Bitrate: lossless Covers: full (600 DPI) Amount of tracks: 10 Size ZIP: ~ 362 mb Upload: nitroflare. Project Kid — 100 Great Craft Projects For Kids and Adults: 0. Join us today for the ultimate listening experience!. Now expanded to a whopping 26 tracks and including a tome of a booklet that features a fulsome biography, track recording details, and song lyrics, Assault the Rock & Roll Era is the ultimate compilation. FLAC / Taper Charles Dewey Cole: jorge: 9: 103: 28th June 2020 - 03:42 PM Last Post by: jcptarchive: 2019-05-23 Indianapolis, In FLAC: jorge: 11: 55: 27th April 2020 - 07:12 PM Last Post by: ron: 2019-05-28 Boston, Ma FLAC: jorge: 10: 37: 28th June 2020 - 03:44 PM Last Post by: jcptarchive: 2019-05-30 Mashantucket, Ct FLAC: jorge: 11: 41: 28th. No music was harmed in the making of this vinyl rip. Audiophile Lossless Audio FLAC Sharing dan Download Ane mau sharing Link Download lagu-lagu dengan kualitas Lossless Audio FLAC 16Bit / 44. Download NEFFEX GMV NUMB MP3 in the best high quality (HD) 30 results, the new songs and videos that are in fashion this 2019, download music from NEFFEX GMV NUMB in different mp3 and video audio formats available; MP3. 9 % Track quality 100. Catalog #: CDP 7 48068 2 Style: Psychedelic Rock Year: 1987 Format: FLAC (image +. Colosseum - 1970-1971 - Unreleased BBC Sessions (FM broadcast FLAC) BBC Sessions 1970/1971 This is a collection of radio sessions Colosseum did for the BBC. rar PF_LiveAtPompeiiRm_flac. 0 kHz]: 1: 0. (Rock) Pink Floyd - Echoes The Best of Pink Floyd (2CD) (2002) [FLAC (Tracks+. Pink Floyd – Shine On (1992) [9CD BoxSet](Flac) Performer: Pink Floyd Album: Shine On Label: Columbia Records 1st issue. com is the best free search engine for flac files. World Premiere Recording! The Florentine Opera brings Carlisle Floyd's daring new opera, 'Prince of Players', to life! Floyd is one of the foremost composers and librettists of opera in the world today, and is considered the 'Father of American Opera. Join us today for the ultimate listening experience!. Any Colour You Like 09. Simple Way to Listen / Download The Wall (Remastered) by Pink Floyd in mp3, FLAC, ogg, zip album and other supported formats. CD1 - A Momentary Lapse of Reason (Remixed & Updated) PFRLY1CD - 00:51:1201. Pink Floyd - The Later Years: 1987-2019 | MP3 & FLAC; Pink Floyd - The Wall (Remastered) + [FLAC] David Bowie - Discographie Studio [FLAC] Michael Jackson - Discographie + [FLAC] Roger Waters – Roger Waters The Wall [iTunes Plus AAC M4A] (2015) Jeff Beck - Albums Collection: 9 Albums (10CD) (2013 - 2014) Pink Floyd - Greatest Hits. An 'Our Hearts Break' sign along 38th St in Minneapolis on Wednesday, after the death of George Floyd on Monday night in Minneapolis, Minnesota (49943002943). Year: 1983 (2017) Country: UK Record Label: Sony Records SICP-5414 Music Genre: psychedelic progressive rock Rip Format: FLAC (Image+Cue+Log) Booklet Scans: Yes Size Archive: ~ 284 MB Host: Yadi. cue) Bitrate: lossless Covers: full (600 DPI) Amount of tracks: 10 Size ZIP: ~ 362 mb Upload: nitroflare. Index of flac pink floyd. 0 96kHz/24Bit, MLP 4. The Great Gig In The Sky 06. wav" WAVE TRACK 02 AUDIO TITLE "The Thin Ice" PERFORMER "Pink Floyd" ISRC GA]IJ1100096 INDEX 01 00:00:00 FILE "03 Another Brick In The Wall, Part 1. Used drive : SONY CDRW/DVD CRX835E Adapter: 4 ID: 0. Quality: FLAC 16 bit / 44. Lo monto con Daemon y luego he intentado reproducirlo con VLC, con Power Dvd, y me baje tambien foobar2000special con el plugin foo_dts. 99 prebeta 5 from 4. 58 MB Pink Floyd - The Wall Live 1980-81 (2000)/disc 1/(15)The Last Few Bricks. Pink Floyd / 1968 Germin-ation FLAC 44kHz/24bit Download XSON683995F44 $17. 0 beta 3 from 29. Ottenendo un seguito come band psichedelica, si distinsero per le loro composizioni estese, la sperimentazione sonora, i testi filosofici e gli elaborati spettacoli dal vivo, e divenne una band leader del genere rock. Replies: 0 Views: 604 31 December 2017, 13:02:54 by Bylinka: Pink Floyd - Echoes-The Best Of Pink Floyd [2CD] (2001) [FLAC] Started by Bylinka. 00b: October 6 2013 at 12:01: robertino. Quality: FLAC 24 bit / 44. The KYGenWeb Project. Jun 11, 2020 · Click “Media Format” drop-down list, choose FLAC as the output audio format. Pero es el The Wall el unico que no he podido hacer funcionar. wav file +. I actually rip each of my CD to a single. The Audiophile Music Player. Any Colour You Like 09. The process of publishing this music catalog is fully automated. 2020 Voodooll Select Wish You Were Here - Pink Floyd. 3000 - E-mail: [email protected] February 2012, 17:46 Pink Floyd / The Wall (Immersion) (CD 1). Pink Floyd: 0. Speak To Me 02. For example, Pink Floyd's Discovery set. Pink Floyd - 1972-02-17+18+19 +20 - The Complete Rainbow Tapes - Live at Rainbow Theater, Finsbury Park, London, England (GR BOX 02 - 2010) 4 Double CD Box (Flac) Год записи: 1972 Год издания: 2011. View Article. Band: Pink Floyd Album: The Dark Side Of The Moon Year: 1973 Remastered: 2016 Country: England FLAC Format: 16 Bits / 44. Kentucky Vital Statistics Project. Pink Floyd: 0. Any complete CD albums, whether in multiple files or single file archive (e. Pink Floyd - The Dark Side Of The Moon [Remastered Edition 2015] (1973) [FLAC] Started by Bylinka. ' During his long career, Floyd has composed Komponist: Carlisle Floyd (1926) Genre: Classical. Quality: FLAC 16 bit / 44. At Floyd County Chamber of Commerce in Prestonsburg, KY, we are dedicated to helping businesses grow and succeed. Replies: 0 Views: 604 31 December 2017, 13:02:54 by Bylinka: Pink Floyd - Echoes-The Best Of Pink Floyd [2CD] (2001) [FLAC] Started by Bylinka. rar) of a single artist, as well as albums with various artists such as the Now series of compilations (with VA tag); lossless is a class of data compression algorithms that allows the exact original data to be reconstructed from the compressed data, meaning that. hits_1960_1962. 5 GB Pink Floyd The Dark Side Of The Moon 1973 [24 bit FLAC] VINYL 890 MB Pink Floyd - Discography [EAC - FLAC] (oan) 7. Follow the link at the bottom for a detailed story about how we maintain the catalog. 1 kHz (Tracks) Artist: Roy Head Title: Same People (That You Meet Going Up, You Meet Coming Down) Released: 1970 / 2020 Style: R&B, Funk / Soul RAR Size: 213 / 379 Mb. rar PF_LiveAtPompeiiRm_flac. 71 GB CERTIFICATE ┬╖ 1. If you search for Pink Floyd on Bandcamp one of the search results you get is for a band called Pink FlÖyd. zip fast and secure. Category: flac Wish You Were Here - Pink Floyd - A Collection Of Great Dance Songs. Kentucky Archives. Learning To Fly - 4:5303. mp4: Pink Floyd - Set The Controls For The Heart Of The Sun: PF The Early Years: Color: 00:11:52: 2019-02-23. Download NEFFEX GMV NUMB MP3 in the best high quality (HD) 30 results, the new songs and videos that are in fashion this 2019, download music from NEFFEX GMV NUMB in different mp3 and video audio formats available; MP3. 25 MB Pink Floyd - Pulse/Disc 2/8 Any Colour You Like. Yellow Magic Orchestra - YMO Ultimate Collection (2x SACD, 2003) SACD ISO + Hi-Res FLAC; Ryuichi Sakamoto - Thousand Knives (1978) [Japanese Reissue '2016] SACD ISO + Hi-Res FLAC. - Get your file - Wish you have good luck and enjoy listening to your album. dsf: 2019-08-09: 梁静茹 - 接受. flac" WAVE TRACK 12 AUDIO TITLE "One Of These Days" INDEX 01 00:00:00 TRACK 13 AUDIO TITLE "Time" INDEX. wav" WAVE TRACK 02 AUDIO TITLE "Dogs" PERFORMER "Pink Floyd" ISRC 000000000000 INDEX 01. The Great Gig In The Sky 06. (ie it does not get automatically fixed, you must do FLAC to FLAC conversion, or less appealingly you can re-rip) I have not had any further flac problems with 998. Category: flac Wish You Were Here - Pink Floyd - A Collection Of Great Dance Songs. 68 Gb | Recovery: 3% | Covers: only front | Release: rip and authoring to DVD-Audio by dida_55 from Blu-ray "Pink Floyd - The Early. 55 KB multiAVCHD. Style: Progressive Rock Year: 1992 Format: FLAC Bitrate: lossless Amount of tracks: 79 Tracklist: CD1 – A Saucerful…. wav file +. It remained on the chart for 26 weeks. In den Warenkorb Auf die Merkliste. Kentucky Vital Statistics Project. 25 MB Pink Floyd - Pulse/Disc 2/8 Any Colour You Like. FLAC (อ่านว่า "แฟลค") เป็นรูปแบบการบันทึกเสียงชนิดหนึ่ง ย่อมาจาก Free Lossless Audio Codec โดยมีไว้เพื่อการบีบอัดข้อมูลแบบไม่สูญเสียของไฟล์เสียงดิจิตอล โดย. Quality: FLAC (image+. CUE) REM DISCID 61116B08REM COMMENT "ExactAudioCopy v1. Lossless / Разное » Скачать торрент Pink Floyd A Nice Pair (Vinyl rip, 24bit, 192kHz) Animals. Replies: 0 Views: 330 31 December 2017, 13:12:11 by Bylinka. They have an album for sale with the charming title Wish You Were Dead. 1khz FLAC Spoiler for Another Brick in the Wall, Pt. Simple Way to Listen / Download The Wall (Remastered) by Pink Floyd in mp3, FLAC, ogg, zip album and other supported formats. rar PF_LiveAtTheBBC_RevA_flac. Music HD Misery Index - Rituals Of Power [Deluxe] (2019) FLAC. The idea was to provide a single entry point for all counties in Kentucky, where collected databases would be stored. CUE) REM DISCID 61116B08REM COMMENT "ExactAudioCopy v1. rar PF_LiveAtPompeiiRm_flac. Pink Floyd released few singles after Barrett left the group, though "Money" was a US top 20 hit, and "Another Brick in the Wall, Part 2" was a number one hit in the UK and US. Artist: Hell In The Club Title Of Album: Hell Of Fame Year Of Release: Label: Frontiers Records s. flac 8 min 46 s; 32. Miscellaneous Debris isn't anything too comprehensive: a simple, five-song EP completely composed of covers. Any complete CD albums, whether in multiple files or single file archive (e. Pink Floyd - The Dark Side Of The Moon [Remastered Edition 2015] (1973) [FLAC] Started by Bylinka. Pulse (stylised as p·u·l·s·e) is a live double album by the English progressive rock band Pink Floyd, released through EMI Records on 29 May 1995 in the United Kingdom and by Columbia Records on 6 June 1995 in the United States. This is my master image, and I have written some programs that will split to multiple WAV files in a folder per CD, based on the CUE, and optionally transcode these to MP3 for use on my phone, FLAC files for my Pono player, Etc. Yellow Magic Orchestra - YMO Ultimate Collection (2x SACD, 2003) SACD ISO + Hi-Res FLAC; Ryuichi Sakamoto - Thousand Knives (1978) [Japanese Reissue '2016] SACD ISO + Hi-Res FLAC. rar PF_LiveAtTheBBC_RevA_flac. October 2011, 10:51. wav" WAVE INDEX 01 00:00:00 TRACK 04 AUDIO TITLE "Corporal Clegg" PERFORMER "Pink Floyd" INDEX. Pink Floyd - Interstellar Overdrive With Frank Zappa: PF The Early Years: Color: 00:13:47: 2016-11-11 + Amougies_Pink Floyd 3- Set The Controls For The Heart Of The Sun Live Belgium 1969_Full HD_(The Early Years). 08: 0: 16664 클래식-고음질. 1 96kHz/24Bit, MLP 2. 99 prebeta 5 from 4. Digitized at 78 revolutions per minute. Made in USA. wav" WAVE INDEX 01 00:00:00 TRACK 03 AUDIO TITLE "Set The Controls For The Heart Of The Sun" PERFORMER "Pink Floyd" INDEX 00 04:29:00 FILE "03 Set The Controls For The Heart Of The Sun. Simple Way to Listen / Download The Wall (Remastered) by Pink Floyd in mp3, FLAC, ogg, zip album and other supported formats. 8MHz/64fs Download FLAC Downloads FLAC 176kHz/24bit Download FLAC 192kHz/24bit Download FLAC 352kHz Pink Floyd: Echoes Of Japanese Meddle. Pink Floyd - Meddle Artist: Pink Floyd | Album: Meddle | Style: Progressive Rock, Psychedelic Rock | Year: 2016 [1971 original] | Quality: DVD-Audio (MLP 5. Channel: Pink Floyd Photos - Nearly 10,000 Pictures to See! - Pink Floyd The Wall Photos | From Live shows to Movie Showing 20 articles in the latest snapshot of channel 48305659. PERFORMER "Pink Floyd" INDEX 00 05:34:32 FILE "02 Remember A Day. 24 KB details. 0 96kHz/24Bit, MLP 4. loreti_golden. 50+ videos Play all Mix - Pink Floyd - The Dark Side of the Moon - Money (FLAC) YouTube Pink Floyd - Money (vinyl) - Duration: 6:57. They have an album for sale with the charming title Wish You Were Dead. Exact Audio Copy V0. com/forums/f145/ac-dc-1976-1977-1979-bbc-sessions-flac-pre-fm-190759. Notes: Limited Remastered Japanese Edition Watch Songs on: YouTube Cover incl. EAC extraction logfile from 3. The Great Gig In The Sky 06. The idea was to provide a single entry point for all counties in Kentucky, where collected databases would be stored. Performer: Pink Floyd Album: A Momentary Lapse Of Reason Label: Pink Floyd Music, EMI Records Ltd. 0 96kHz/24Bit, MLP 4. Pink Floyd - The Wall (Remastered) + [FLAC] Radiohead - OK Computer OKNOTOK 1997 2017 + [FLAC] David Bowie - Loving the Alien (1983 - 1988) + [FLAC] Armin van Buuren - A State of Trance, Ibiza 2016 (Mixed by Armin van Buuren) + [FLAC] Stratovarius - Best Of (Remastered) - 2016; Pink Floyd - The Division Bell 20th Anniversary Double Vinyl. Содержание индексной карты (. He was known for his "slip note" piano style, in which an out-of-key note slides into the correct note. wav" WAVE TRACK 02 AUDIO TITLE "The Thin Ice" PERFORMER "Pink Floyd" ISRC GA]IJ1100096 INDEX 01 00:00:00 FILE "03 Another Brick In The Wall, Part 1. dsf: 2019-08-09: Mariah Carey- Whenever You Call. Pink Floyd - The Final Cut High Resolution Remasteres [Unofficial] (2018) FLAC. 0b3"PERFORMER ""TITLE ""FILE "01 Pigs On The Wing (Parts 1&2). fm/music/Pink+Floyd Viewing All 10. 1 KHz (CD lossless) MP3 Format: 320 kbps 01. 3000 - E-mail: [email protected] Pink Floyd - 1972-02-17+18+19 +20 - The Complete Rainbow Tapes - Live at Rainbow Theater, Finsbury Park, London, England (GR BOX 02 - 2010) 4 Double CD Box (Flac) Год записи: 1972 Год издания: 2011. com Password: without a password. rar PF_LiveAtPompeiiRm_flac. I'll take a jolly good vinyl rip if anyone has one (but preferably a WEB FLAC). 33 > Wave > TLH (sbe aligned) Flac 8 Taped by Keith Litzenberger The quality on this is pretty good, you folks will enjoy it. Pink Floyd - More/01 Cirrus Minor. cue 679 B 1975 Quadro Mix. We put together a catalog of MP3/FLAC music and decided to make it available on the Web. Country: Italy Genre: Heavy Metal,Hard Rock Quality: FLAC (*tracks) Bitrate: Lossless [44. 2010 | Commentaires: 199 | Articles: 0 #2. fm/music/Pink+Floyd Viewing All 10. PERFORMER "Pink Floyd" ISRC GA]IJ1100095 INDEX 01 00:00:00 FILE "02 The Thin Ice. Replies: 0 Views: 604 31 December 2017, 13:02:54 by Bylinka: Pink Floyd - Echoes-The Best Of Pink Floyd [2CD] (2001) [FLAC] Started by Bylinka. 0 % Test CRC D7497084 Copy CRC D7497084 Copy OK Track 4 Filename D:\0\Billy Sherwood & Friends - Back Against The Wall (2005) [FLAC]\Disc 1\04 - The Happeist Days Of Our Lives. Performer: FLOYD RAY And His Orchestra; Ivy; Vern; VonWriter: Floyd RayFox Trot; Vocal Chorus by. 99 prebeta 5 from 4. FLAC 音乐 APE音乐 Hi Pink Floyd - Money. Kentucky Archives. 58 MB Pink Floyd - The Wall Live 1980-81 (2000)/disc 1/(15)The Last Few Bricks. cue 679 B 1975 Quadro Mix. Level: The amount of file size compression used to losslessly pack the audio data, similar to compression levels in ZIP files. flac Subsong index : 0 File size : 1. Ottenendo un seguito come band psichedelica, si distinsero per le loro composizioni estese, la sperimentazione sonora, i testi filosofici e gli elaborati spettacoli dal vivo, e divenne una band leader del genere rock. I brani sono stati raccolti dalla rete. 33 > Wave > TLH (sbe aligned) Flac 8 Taped by Keith Litzenberger The quality on this is pretty good, you folks will enjoy it. Made in Holland (Italy/UK). The process of publishing this music catalog is fully automated. cue) Bitrate: lossless Covers: in archive Amount of tracks: 16 Size ZIP: ~ 1. Pink Floyd - The Dark Side Of The Moon полная реставрация в соответствии с концептом AudioPhil editions Жанр: psychedelic rock Год выпуска: 1973 Лейбл: Harvest Records Страна-производитель: UK Аудио кодек: FLAC Тип рипа: image+. Pink Floyd - Lucy Leave and Other Rarities (FLAC) 토렌트 링크 제공 서치엔진; Pink Floyd - Lucy Leave and Other Rarities (FLAC) 월등한 자료량 무료 다운로드; Pink Floyd - Lucy Leave and Other Rarities (FLAC) 토렌트가 필요할 땐 토렌트제이. Pero es el The Wall el unico que no he podido hacer funcionar. October 2011, 4:46. cue 679 B 1975 Quadro Mix. Pink Floyd - The Later Years: 1987-2019 | MP3 & FLAC; Pink Floyd - The Wall (Remastered) + [FLAC] David Bowie - Discographie Studio [FLAC] Michael Jackson - Discographie + [FLAC] Roger Waters – Roger Waters The Wall [iTunes Plus AAC M4A] (2015) Jeff Beck - Albums Collection: 9 Albums (10CD) (2013 - 2014) Pink Floyd - Greatest Hits. 98: Pink Floyd / Obscured By Clouds 180 Gram Vinyl Record APFLR 84241 Original Price: $29. Il tutto è stato rieditato, introducendo nomemclature e TAG secondo i miei standard di uniformità. The level settings range from 0 to 8. 99 prebeta 5 from 4. Floyd Cramer (October 27, 1933 – December 31, 1997) was an American Hall of Fame pianist who was one of the architects of the Nashville sound. mp4: Pink Floyd - Set The Controls For The Heart Of The Sun: PF The Early Years: Color: 00:11:52: 2019-02-23. loreti_golden. We work together with government and civic leaders to foster business growth and economic development to improve the quality of life in the Floyd County area. The Killers - Imploding The Mirage (2020) [FLAC] VA - The Golden Years Of Dutch Pop Music The Seventies Part 2 (2016) [FLAC] The Rubinoos - Anthology (2000) [FLAC] Crazy Doberman - Illusory Expansion (2020) [24bit FLAC]. rar PF_LiveAtTheBBC_RevA_flac. Colosseum - 1970-1971 - Unreleased BBC Sessions (FM broadcast FLAC) BBC Sessions 1970/1971 This is a collection of radio sessions Colosseum did for the BBC. 71 GB CERTIFICATE ┬╖ 1. 1 96kHz/24Bit, MLP 2. How to Listen / Download The Wall (Remastered): - Scroll down to comments - Click the link. Project Kid — 100 Great Craft Projects For Kids and Adults: 0. Pink Floyd - Lucy Leave and Other Rarities (FLAC) 토렌트 링크 제공 서치엔진; Pink Floyd - Lucy Leave and Other Rarities (FLAC) 월등한 자료량 무료 다운로드; Pink Floyd - Lucy Leave and Other Rarities (FLAC) 토렌트가 필요할 땐 토렌트제이. Merci beaucoup pour la version FLAC, je l'ai dèja en CD, mais là le son est meilleur en FLAC remaster Groupe: Membre | Enregister: 11. Kentucky Vital Statistics Project. The KYGenWeb Project. Made in NL. Breathe 03. 24 KB details. Any Colour You Like 09. BBC SESSIONS 1976-1979 09/04/1976 Paris Theatre, London, England. Passionato offers its downloads - single tracks, works or albums - at high-quality 320kbps MP3 or lossless FLAC (Free Lossless Audio Codec). (sub-index?). wav file +. 0b3"PERFORMER ""TITLE ""FILE "01 Pigs On The Wing (Parts 1&2). Board index; All. Music HD Misery Index - Rituals Of Power [Deluxe] (2019) FLAC. 1(FLAC) 2017. Four stylii were used. Used drive : SONY CDRW/DVD CRX835E Adapter: 4 ID: 0. I will add a +1 here too. Editing : Adobe Audition > Ozone 5 > Sample Manager > xACT 2. Colosseum - 1970-1971 - Unreleased BBC Sessions (FM broadcast FLAC) BBC Sessions 1970/1971 This is a collection of radio sessions Colosseum did for the BBC. ' During his long career, Floyd has composed Komponist: Carlisle Floyd (1926) Genre: Classical. 다시 말해서, MP3 , AAC , Vorbis 와는 달리 오디오 스트림에 손실이 발생하지 않는다. Yet Another Movie - 6:1507. FLAC 音乐 APE音乐 Hi Pink Floyd - Money. 63 MB Pink Floyd - More/06 Cymbaline. Any complete CD albums, whether in multiple files or single file archive (e. The premier hillbilly parody act get the Bear Family Records red carpet treatment with this CD reissue of the label's 1989 vinyl compilation. The Album Title is set as "Discovery" and then each disc has the appropriate title (for instance, "Dark Side of the Moon" or "Animals") in the DISCSUBTITLE tag. 무손실 압축 포맷이다. Pink Floyd - The Best Of The Pink Floyd (1970) FLAC Freedom Crew: Music: 11 months ago: 170 MB: 0: 1: Pink Floyd Echoes The Best Of Pink Floyd Remastered 320 Kbps: Music: 8 years ago: 425 MB: 0: 0: Pink Floyd - The Best Of Pink Floyd - A Foot In The Door [flac] Music: 11 months ago: 465 MB: 1: 1: Pink Floyd - Echoes : The Best of Pink Floyd. flac" WAVE TRACK 12 AUDIO TITLE "One Of These Days" INDEX 01 00:00:00 TRACK 13 AUDIO TITLE "Time" INDEX. Exact Audio Copy V0. Speak To Me 02. 68 Gb | Recovery: 3% | Covers: only front | Release: rip and authoring to DVD-Audio by dida_55 from Blu-ray "Pink Floyd - The Early. PERFORMER "Pink Floyd" ISRC GA]IJ1100095 INDEX 01 00:00:00 FILE "02 The Thin Ice. Channel: Pink Floyd Photos - Nearly 10,000 Pictures to See! BLACKPINK – Square One [Hi Res] [FLAC 24/96. com is the best free search engine for flac files. Performer: Pink Floyd Album: Ummagumma Label: EMI Records. La discografia Ufficiale in studio è completa fino al 15-08-2018. Find the best information and most relevant links on all topics related toThis domain may be for sale!. Now expanded to a whopping 26 tracks and including a tome of a booklet that features a fulsome biography, track recording details, and song lyrics, Assault the Rock & Roll Era is the ultimate compilation. Pink Floyd - The Dark Side of the Moon - Time (FLAC). Artist: Area Code 615 Title: Area Code 615 & Trip In The Country Year Of Release: 1974/2000 Label: Koch Records/Universal Genre: Country Rock Quality: Mp3 320 / Flac (tracks,. 00b: October 6 2013 at 12:01: robertino. 1970-06-27 · Pink Floyd @ Bath & West Showground, Shepton Mallet, Somerset · Master Reel · 7 hours ago 1999-07-24 · Roger Waters @ Allstate Arena, Rosemont · KRW_CO DAT Master · 2 days ago 2016-07-18 · David Gilmour @ Bowling Green, Wiesbaden · Rattle That Lock World Tour 2016 · 3 days ago. The KYGenWeb Project. Made in NL. se 897 MB 2010-05-20 0 0 Pink Floyd - The Early Years 1967-1972 Cre/ation [2CD] (2016) FLAC. Pink Floyd The Dark Side Of The Moon BoxSet 3CD FLAC 1. 8bit Pink Floyd STILL goes over better than 8bit Zeppelin. Filename D:\0\Billy Sherwood & Friends - Back Against The Wall (2005) [FLAC]\Disc 1\03 - Another Brick In The Wall (Part 1). The Great Gig In The Sky 06. mp4: Pink Floyd - Set The Controls For The Heart Of The Sun: PF The Early Years: Color: 00:11:52: 2019-02-23. The idea was to provide a single entry point for all counties in Kentucky, where collected databases would be stored. The album was recorded during the band’s Division Bell Tour in 1994, specifically the UK and European leg. The process of publishing this music catalog is fully automated. dsf: 2019-08-09: 梁静茹 - 接受. Consider this online catalog our tribute to art, our tribute to real music. HDtracks is a high-resolution music platform for music lovers to download their favorite tracks in master studio quality. Index Alphabétique; Lexique; MP3 & FLAC uploaded, Pink Floyd - The Later Years: 1987-2019 | MP3 & FLAC free, Pink Floyd - The Later Years: 1987-2019 | MP3 & FLAC. HDtracks is a high-resolution music platform for music lovers to download their favorite tracks in master studio quality. Signs Of Life - 4:2402. Used drive : SONY CDRW/DVD CRX835E Adapter: 4 ID: 0. Band: Pink Floyd Album: The Dark Side Of The Moon Year: 1973 Remastered: 2016 Country: England FLAC Format: 16 Bits / 44. cue 679 B 1975 Quadro Mix. The album was recorded during the band’s Division Bell Tour in 1994, specifically the UK and European leg. Four stylii were used. rar PF_LiveAtTheBBC_RevA_flac. rar PF_LiveAtPompeiiRm_flac. Replies: 0 Views: 604 31 December 2017, 13:02:54 by Bylinka: Pink Floyd - Echoes-The Best Of Pink Floyd [2CD] (2001) [FLAC] Started by Bylinka. 무손실 압축 포맷이다. Consider this online catalog our tribute to art, our tribute to real music. On The Run 04. 63 MB Pink Floyd - More/06 Cymbaline. 0 beta 3 from 29. Band Name: Pink Floyd Album Title: The Final Cut (Japan Limited Edition Remastered) Total Playing Time: 00:46:21 Min. 1 KHz (CD lossless) MP3 Format: 320 kbps 01. Descrizione I Pink Floyd erano una band rock inglese formata a Londra nel 1965. The Audiophile Music Player. 0 96kHz/24Bit, MLP 4. 29 KB cover. Index of pink floyd flac. Jun 11, 2020 · Click “Media Format” drop-down list, choose FLAC as the output audio format. Please confirm whether or not your using a re-flac'd or re-ripped file. Filename D:\0\Billy Sherwood & Friends - Back Against The Wall (2005) [FLAC]\Disc 1\03 - Another Brick In The Wall (Part 1). Consider this online catalog our tribute to art, our tribute to real music. 1 kHz (Tracks) / FLAC 24 bit / 44. rar LIVE EVIL 002 : Pink Floyd - Live at the BBC (best of), (disc 2 remastered) PF_LiveAtTheBBC_RevA_flac. Ronda Rousey challenges Floyd Mayweather to text her ‘when he learns to read and write’. Descrizione I Pink Floyd erano una band rock inglese formata a Londra nel 1965. Passionato offers its downloads - single tracks, works or albums - at high-quality 320kbps MP3 or lossless FLAC (Free Lossless Audio Codec). Pink Floyd / ANIMALS. Pulse (stylised as p·u·l·s·e) is a live double album by the English progressive rock band Pink Floyd, released through EMI Records on 29 May 1995 in the United Kingdom and by Columbia Records on 6 June 1995 in the United States. 1 kHz (Tracks) Artist: Mathusalemherod Title: Discography (2018-2020) Released: 2020 Style: Power Electronic, Industrial, Ambient RAR Size: 894 Mb Tracklist & Download Links. wav" WAVE INDEX 01 00:00:00 TRACK 03 AUDIO TITLE "Set The Controls For The Heart Of The Sun" PERFORMER "Pink Floyd" INDEX 00 04:29:00 FILE "03 Set The Controls For The Heart Of The Sun. Breathe 03. The KYGenWeb Project. Pink Floyd The Dark Side Of The Moon BoxSet 3CD FLAC 1. 6) All de-clicking software used in full manual mode to preserve musical transients. Channel: Pink Floyd Photos - Nearly 10,000 Pictures to See! BLACKPINK – Square One [Hi Res] [FLAC 24/96. For example, Pink Floyd's Discovery set. 29 KB cover. 1khz FLAC Spoiler for Another Brick in the Wall, Pt. 55 KB multiAVCHD. Extreme Download Musique Rock Pink Floyd - The Dark Side of the Moon (Remastered) + [FLAC]. Merci beaucoup pour la version FLAC, je l'ai dèja en CD, mais là le son est meilleur en FLAC remaster Groupe: Membre | Enregister: 11. FLAC 音乐 APE音乐 Hi Pink Floyd - Money. Il materiale è stato controllato e da me trovato affidabile. October 2011, 10:51. 56 MB Baby Guitarist Mourning (tribute to George Floyd). If you search for Pink Floyd on Bandcamp one of the search results you get is for a band called Pink FlÖyd. 00b: October 6 2013 at 12:00: requiem for a dream - OST: 0. August 2011 EAC extraction logfile from 25. 1 96kHz/24Bit, MLP 2. Any Colour You Like 09. Music HD Misery Index - Rituals Of Power [Deluxe] (2019) FLAC. Cartoon network tv schedule zap2it. Index of pink floyd flac Index of pink floyd flac. audio site provides FLAC songs ripped from good source. 24 KB details. 무손실 압축 포맷이다. Subgenre: Adult Alternative. This is my master image, and I have written some programs that will split to multiple WAV files in a folder per CD, based on the CUE, and optionally transcode these to MP3 for use on my phone, FLAC files for my Pono player, Etc. Catalog #: 7243 8 3120 2 2 (724383 12132 8 / 724383 12142 7) Style: Progressive Rock Year: 1969 (2009) Format: FLAC (image +. The material is surprisingly varied ranging from Peter Gabriel to XTC to Pink Floyd, but all of the songs sharing Primus' love for the quirky and Genre: Rock. Associação dos Magistrados Catarinenses: Rua Dos Bambus, 116 - Itacorubi - Florianópolis/SC - Cep 88034-570: Fone: (48) 3231. File formats: FLAC, WAV, MLP, APE, TTA, ALS, etc. com Password: without a password. 68 Gb | Recovery: 3% | Covers: only front | Release: rip and authoring to DVD-Audio by dida_55 from Blu-ray "Pink Floyd - The Early. Descrizione I Pink Floyd erano una band rock inglese formata a Londra nel 1965. Exact Audio Copy V0. It debuted at #2 on the Billboard 200 album chart on 24 November 2001, with sales of 214,650 copies. Descargue todos los discos dts de pink floyd. CUE), lossless] underver. 3 - Pink Floyd : Another Brick in the Wall, Pt. 구구단 (gugudan) – The Little Mermaid Act. Level: The amount of file size compression used to losslessly pack the audio data, similar to compression levels in ZIP files. Now expanded to a whopping 26 tracks and including a tome of a booklet that features a fulsome biography, track recording details, and song lyrics, Assault the Rock & Roll Era is the ultimate compilation. 29 KB cover. 55 KB multiAVCHD. it would display 01 04) when it played part 4 of track 1. Editing : Adobe Audition > Ozone 5 > Sample Manager > xACT 2. Made in NL. - Get your file - Wish you have good luck and enjoy listening to your album. Floyd County Archives. 무손실 압축 포맷이다. For example, Pink Floyd's Discovery set. DescrizioneI Pink Floyd erano una band rock inglese formata a Londra nel 1965. 3 - Pink Floyd : Another Brick in the Wall, Pt. com/forums/f145/ac-dc-1976-1977-1979-bbc-sessions-flac-pre-fm-190759. Find the best information and most relevant links on all topics related toThis domain may be for sale!. Pink Floyd 1975 Wish You Were Here 1975 Wish You Were Here (Australia, CBS, SBP 234651) Vinyl 24Bit 192Khz Covers/Wish You Were Here [SBP 234651]. Catalog #: 7243 8 3120 2 2 (724383 12132 8 / 724383 12142 7) Style: Progressive Rock Year: 1969 (2009) Format: FLAC (image +. Performer: Pink Floyd Album: A Momentary Lapse Of Reason Label: Pink Floyd Music, EMI Records Ltd. Christian Klinkenberg – Der Gletscher (2020) [24bit FLAC] Top Posts. SACD Download. In den Warenkorb Auf die Merkliste. They have an album for sale with the charming title Wish You Were Dead. On The Turning Away - 5:4206. 9 % Track quality 100. EAC extraction logfile from 3. dll pero en todos escucho solo ruido. 0 96kHz/24Bit, MLP 4. Watch and download free files flac. 25 MB Pink Floyd - Pulse/Disc 2/8 Any Colour You Like. Music HD Misery Index - Rituals Of Power [Deluxe] (2019) FLAC. 99 prebeta 5 from 4. August 2011 EAC extraction logfile from 25. September 9, 2013, 11:27 am. Merci beaucoup pour la version FLAC, je l'ai dèja en CD, mais là le son est meilleur en FLAC remaster Groupe: Membre | Enregister: 11. No music was harmed in the making of this vinyl rip. Lo monto con Daemon y luego he intentado reproducirlo con VLC, con Power Dvd, y me baje tambien foobar2000special con el plugin foo_dts. Us And Them 08. Quality: FLAC 24 bit / 44. Pink Floyd released few singles after Barrett left the group, though "Money" was a US top 20 hit, and "Another Brick in the Wall, Part 2" was a number one hit in the UK and US. Replies: 0 Views: 330 31 December 2017, 13:12:11 by Bylinka. Rush July 9, 2015 Kansas City, Missouri, USA Sprint Center "R40KC" Xavel Silver Masterpiece Series XAVEL-SMS-053 Japanese 3 CD set Contrast clause: The material in this torrent is different than any other recording of Kansas City July 9, 2015 known to appear on the tracker. File formats: FLAC, WAV, MLP, APE, TTA, ALS, etc. We work together with government and civic leaders to foster business growth and economic development to improve the quality of life in the Floyd County area. English: Baby Guitarist Mourning is a tribute soundscape created in the memory of George Floyd, a 46-year-old African-American man who was killed by a white police officer Derek Chauvin on May 25, 2020 in Minneapolis, Minnesota, US. Pulse (stylised as p·u·l·s·e) is a live double album by the English progressive rock band Pink Floyd, released through EMI Records on 29 May 1995 in the United Kingdom and by Columbia Records on 6 June 1995 in the United States. On The Run 04. 98: Viewing 1 - 20 of 55 Products. com is the best free search engine for flac files. com/forums/f145/ac-dc-1976-1977-1979-bbc-sessions-flac-pre-fm-190759. 0 beta 3 from 29. Pink Floyd / Discography Genere: Psychedelic Rock, Progressive Rock, Art Rock Paese: UK Anno: 1967-1979 Remastered : 1987 Label: Columbia, Harvest, EMI, CBS Qualità: FLAC 24 bit Hi-Res Bit-rate: 5350 Kbps Size: 24,2 GB Pink Floyd / Discography Genere: Psychedelic Rock, Progressive Rock, Art. Floyd Cramer (October 27, 1933 – December 31, 1997) was an American Hall of Fame pianist who was one of the architects of the Nashville sound. LIVE EVIL 001 : Pink Floyd - Live at Pompeii (speed corrected) PF_LiveAtPompeiiRm_flac. wav" WAVE INDEX 01 00:00:00 TRACK 03 AUDIO TITLE "Set The Controls For The Heart Of The Sun" PERFORMER "Pink Floyd" INDEX 00 04:29:00 FILE "03 Set The Controls For The Heart Of The Sun. dll pero en todos escucho solo ruido. It remained on the chart for 26 weeks. Pulse (stylised as p·u·l·s·e) is a live double album by the English progressive rock band Pink Floyd, released through EMI Records on 29 May 1995 in the United Kingdom and by Columbia Records on 6 June 1995 in the United States. Simple Way to Listen / Download The Wall (Remastered) by Pink Floyd in mp3, FLAC, ogg, zip album and other supported formats. 08: 0 » 해외-고음질: Pink Floyd - Echoes (Remastered) The Best Of Pink Floyd (2016) [FLAC] 2017. Pink Floyd - Interstellar Overdrive With Frank Zappa: PF The Early Years: Color: 00:13:47: 2016-11-11 + Amougies_Pink Floyd 3- Set The Controls For The Heart Of The Sun Live Belgium 1969_Full HD_(The Early Years). com Password: without a password. wav file +. 68 Gb | Recovery: 3% | Covers: only front | Release: rip and authoring to DVD-Audio by dida_55 from Blu-ray "Pink Floyd - The Early. flac Subsong index : 0 File size : 1. Pulse (stylised as p·u·l·s·e) is a live double album by the English progressive rock band Pink Floyd, released through EMI Records on 29 May 1995 in the United Kingdom and by Columbia Records on 6 June 1995 in the United States. Unless you re-rip or do a flac to flac conversion (via MM), then the file will still show corrupted with flac -t. Pink Floyd - Lucy Leave and Other Rarities (FLAC) 토렌트 링크 제공 서치엔진; Pink Floyd - Lucy Leave and Other Rarities (FLAC) 월등한 자료량 무료 다운로드; Pink Floyd - Lucy Leave and Other Rarities (FLAC) 토렌트가 필요할 땐 토렌트제이. Quality: FLAC 24 bit / 44. A Premium subscription allows you to enjoy additional benefits to the free service that Rapidgator offers. Channel: Pink Floyd Photos - Nearly 10,000 Pictures to See! BLACKPINK – Square One [Hi Res] [FLAC 24/96. ' During his long career, Floyd has composed Komponist: Carlisle Floyd (1926) Genre: Classical. Hola, mucha gracias por compartir este material. 3 - Pink Floyd CD Quality 16-bit/44. 24 KB details. 58 MB Pink Floyd - The Wall Live 1980-81 (2000)/disc 1/(15)The Last Few Bricks. Il tutto è stato rieditato, introducendo nomemclature e TAG secondo i miei standard di uniformità. Pink Floyd - The Best Of The Pink Floyd (1970) FLAC Freedom Crew: Music: 11 months ago: 170 MB: 0: 1: Pink Floyd Echoes The Best Of Pink Floyd Remastered 320 Kbps: Music: 8 years ago: 425 MB: 0: 0: Pink Floyd - The Best Of Pink Floyd - A Foot In The Door [flac] Music: 11 months ago: 465 MB: 1: 1: Pink Floyd - Echoes : The Best of Pink Floyd. Editing : Adobe Audition > Ozone 5 > Sample Manager > xACT 2. dsf: 2019-08-09: 梁静茹 - 接受. Band: Pink Floyd Album: The Dark Side Of The Moon Year: 1973 Remastered: 2016 Country: England FLAC Format: 16 Bits / 44. In den Warenkorb Auf die Merkliste. Artist: Area Code 615 Title: Area Code 615 & Trip In The Country Year Of Release: 1974/2000 Label: Koch Records/Universal Genre: Country Rock Quality: Mp3 320 / Flac (tracks,. Replies: 0 Views: 330 31 December 2017, 13:12:11 by Bylinka. The idea was to provide a single entry point for all counties in Kentucky, where collected databases would be stored. What is a subscription and what is it for? A. 00b: October 6 2013 at 12:01: Rise And Fall (CDM) 0. Exact Audio Copy V0. Any Colour You Like 09. Pink Floyd - Meddle Artist: Pink Floyd | Album: Meddle | Style: Progressive Rock, Psychedelic Rock | Year: 2016 [1971 original] | Quality: DVD-Audio (MLP 5. 5 GB Pink Floyd The Dark Side Of The Moon 1973 [24 bit FLAC] VINYL 890 MB Pink Floyd - Discography [EAC - FLAC] (oan) 7. Floyd County Map. Floyd wrote:The Guts and Teeth EPs are available on what in FLAC. One Slip - 5:1005. 0 96kHz/24Bit, MLP 4. FLAC (อ่านว่า "แฟลค") เป็นรูปแบบการบันทึกเสียงชนิดหนึ่ง ย่อมาจาก Free Lossless Audio Codec โดยมีไว้เพื่อการบีบอัดข้อมูลแบบไม่สูญเสียของไฟล์เสียงดิจิตอล โดย. 6) All de-clicking software used in full manual mode to preserve musical transients. 0 kHz]: 1: 0. Any complete CD albums, whether in multiple files or single file archive (e. CUE), lossless] underver. Level 0 is optimized to encode as fast as possible. Pink Floyd - Integrale Pink Floyd Studio Catalogue (Discovery Edition - 14 albums - 16 CD) [2011] PJ Harvey - 2007 White Chalk PJ Harvey - 2011 - Let England Shake (FLAC). View Article. [Flac] Progressive - Test&Copy + Cue Soft Machine Complete Studio Discography 1968-2018 PLUS MANY LIVE. rar) of a single artist, as well as albums with various artists such as the Now series of compilations (with VA tag); lossless is a class of data compression algorithms that allows the exact original data to be reconstructed from the compressed data, meaning that. Pink Floyd - Meddle Artist: Pink Floyd | Album: Meddle | Style: Progressive Rock, Psychedelic Rock | Year: 2016 [1971 original] | Quality: DVD-Audio (MLP 5. Artist: Pink Floyd Year: 1994/2011 Genre: Rock Notes: Discogs Add. As an example, Atom Heart Mother (the track) by Pink Floyd consists of 6 parts 01 01 Father’s Shout 01 02 Breast Milky 01 03 Mother Fore 01 04 Funky Dung 01 05 Mind Your Throats Please 01 06 Remergence. 68 Gb | Recovery: 3% | Covers: only front | Release: rip and authoring to DVD-Audio by dida_55 from Blu-ray "Pink Floyd - The Early. audio site provides FLAC songs ripped from good source. INDEX 01 35:27:52 TRACK 09 AUDIO TITLE "Sorrow" INDEX 01 36:02:20 TRACK 10 AUDIO TITLE "The Dogs Of War" INDEX 01 46:27:38 TRACK 11 AUDIO TITLE "On The Turning Away" INDEX 01 54:30:00 FILE "Pink Floyd - Delicate Sound of Thunder (CD 2 Remix). 7 - Bob van Asperen (warner 2013) FLAC 2017. The Discogs listing posted in the OP has their name misspelled, or I would've realized they're all already in FLAC on WCD. Used drive : SONY CDRW/DVD CRX835E Adapter: 4 ID: 0. So I developed this tool to save few minutes of my time. fat joe the dark side free full download. Pink Floyd - 1972-02-17+18+19 +20 - The Complete Rainbow Tapes - Live at Rainbow Theater, Finsbury Park, London, England (GR BOX 02 - 2010) 4 Double CD Box (Flac) Год записи: 1972 Год издания: 2011. Quality: FLAC (image+. The level settings range from 0 to 8. 0 96kHz/24Bit, MLP 4. Pink Floyd / ANIMALS. Download File flac xyz Pink Floyd Foot The Door The Best Pink Floyd (PFR21) Remastered FLAC 2016 RUiL rar. I brani sono stati raccolti dalla rete. FLAC (อ่านว่า "แฟลค") เป็นรูปแบบการบันทึกเสียงชนิดหนึ่ง ย่อมาจาก Free Lossless Audio Codec โดยมีไว้เพื่อการบีบอัดข้อมูลแบบไม่สูญเสียของไฟล์เสียงดิจิตอล โดย. wav Peak level 89. 7 - Bob van Asperen (warner 2013) FLAC 2017. (Rock) Pink Floyd - Echoes The Best of Pink Floyd (2CD) (2002) [FLAC (Tracks+. privacy policy. FLAC 音乐 APE音乐 Hi Pink Floyd - Money. Country: Italy Genre: Heavy Metal,Hard Rock Quality: FLAC (*tracks) Bitrate: Lossless [44. File formats: FLAC, WAV, MLP, APE, TTA, ALS, etc. Performer: Pink Floyd Album: Ummagumma Label: EMI Records. He was known for his "slip note" piano style, in which an out-of-key note slides into the correct note. 1970-06-27 · Pink Floyd @ Bath & West Showground, Shepton Mallet, Somerset · Master Reel · 7 hours ago 1999-07-24 · Roger Waters @ Allstate Arena, Rosemont · KRW_CO DAT Master · 2 days ago 2016-07-18 · David Gilmour @ Bowling Green, Wiesbaden · Rattle That Lock World Tour 2016 · 3 days ago. February 2012, 17:46 Pink Floyd / The Wall (Immersion) (CD 1). 1 kHz/16 Bit/s). So I developed this tool to save few minutes of my time. Another Brick in the Wall, Pt. Exact Audio Copy V1. Cartoon network tv schedule zap2it. October 2011, 10:51. jpg 3,936 × 2,624; 5. Echoes: The Best of Pink Floyd is the fourth compilation album by the English rock band Pink Floyd, released on 5 November 2001 by EMI internationally and a day later by Capitol Records in the United States. As an example, Atom Heart Mother (the track) by Pink Floyd consists of 6 parts 01 01 Father’s Shout 01 02 Breast Milky 01 03 Mother Fore 01 04 Funky Dung 01 05 Mind Your Throats Please 01 06 Remergence. fat joe the dark side free full download. World Premiere Recording! The Florentine Opera brings Carlisle Floyd's daring new opera, 'Prince of Players', to life! Floyd is one of the foremost composers and librettists of opera in the world today, and is considered the 'Father of American Opera. Floyd wrote:The Guts and Teeth EPs are available on what in FLAC. Catalog #: CDP 7 48068 2 Style: Psychedelic Rock Year: 1987 Format: FLAC (image +. It debuted at #2 on the Billboard 200 album chart on 24 November 2001, with sales of 214,650 copies. ALSO AVAILABLE - Pink Floyd Dark Side Of The Moon [AVCHD-FLAC-Immersion][Bubanee] ----- Contents ----- AVCHD BDMV ┬╖ 5. Exact Audio Copy V1. FLAC encoded Level 8 with XLD Version 20100302 (116. On The Turning Away - 5:4206. 50+ videos Play all Mix - Pink Floyd - The Dark Side of the Moon - Money (FLAC) YouTube Pink Floyd - Money (vinyl) - Duration: 6:57. 8bit Pink Floyd STILL goes over better than 8bit Zeppelin. Pink Floyd - The Later Years: 1987-2019 | MP3 & FLAC; Pink Floyd - The Wall (Remastered) + [FLAC] David Bowie - Discographie Studio [FLAC] Michael Jackson - Discographie + [FLAC] Roger Waters – Roger Waters The Wall [iTunes Plus AAC M4A] (2015) Jeff Beck - Albums Collection: 9 Albums (10CD) (2013 - 2014) Pink Floyd - Greatest Hits. 33 > Wave > TLH (sbe aligned) Flac 8 Taped by Keith Litzenberger The quality on this is pretty good, you folks will enjoy it. 1 kHz (Tracks) Artist: Mathusalemherod Title: Discography (2018-2020) Released: 2020 Style: Power Electronic, Industrial, Ambient RAR Size: 894 Mb Tracklist & Download Links. Used drive : SONY CDRW/DVD CRX835E Adapter: 4 ID: 0. How to Listen / Download The Wall (Remastered) : - Scroll down to comments. 71 GB CERTIFICATE ┬╖ 1. I brani sono stati raccolti dalla rete. Shoegaze Daddy Hi, does anyone have this in FLAC/V0. The idea was to provide a single entry point for all counties in Kentucky, where collected databases would be stored. dsf: 2019-08-09: 梁静茹 - 接受. Signs Of Life - 4:2402. Pink Floyd The Dark Side Of The Moon BoxSet 3CD FLAC 1. FLAC (อ่านว่า "แฟลค") เป็นรูปแบบการบันทึกเสียงชนิดหนึ่ง ย่อมาจาก Free Lossless Audio Codec โดยมีไว้เพื่อการบีบอัดข้อมูลแบบไม่สูญเสียของไฟล์เสียงดิจิตอล โดย. Floyd Mayweather vs Canelo Alvarez PPV Live Stream on Showtime 14 Sep. CUE), lossless] underver. For example, Pink Floyd's Discovery set. Music HD Misery Index - Rituals Of Power [Deluxe] (2019) FLAC. In March and April, 1996, a group of genealogists organized the Kentucky Comprehensive Genealogy Database.